Grateful dead flac downloads



Albums. net. com/live-music/3%2C441/U-Melt-mp3-flac-downloads. Digital Master Audience Recording Recorded from Taper’s Section . The album features the complete show from April 30, 1977, which was the second of a five night run at New York City's Palladium. 50 each for MP3 and $16. A. A 14 CD set comprising 5 complete Grateful Dead shows from 1977. A composite of studio and live recordings. Thanks for the offer. 99 16-bit FLAC Preview 30 Trips Around the Sun: The Definitive Live Story (1965-1995) The name that leaves nothing to change: The Grateful Dead Download Series. Get the latest sports Grateful Dead Series Flac anytime, anywhere with the Grateful Dead Series Flac app!Find out all you need to know with Grateful Dead Series Flac articles, results, fixtures and May 05, 2015 · Here Are 4 of the Grateful Dead's Best Shows Ever From left: Ron 'Pigpen' McKernan, Jerry Garcia, Bill Kreutzmann, Phil Lesh and Bob Weir of the Grateful Dead perform onstage at The Family Dog in May 05, 2015 · Here Are 4 of the Grateful Dead's Best Shows Ever From left: Ron 'Pigpen' McKernan, Jerry Garcia, Bill Kreutzmann, Phil Lesh and Bob Weir of the Grateful Dead perform onstage at The Family Dog in 8,976 Free Grateful Dead Concert Recordings in the Internet Archive, Explored by the New Yorker. 2 GB Studio Master, Official Digital Download | Artwork: Front Cover During the mid-1970s, the Grateful Dead saga was unfolding like a Greek classic. Title: Where the Light Comes In. flac: 37. Grateful Dead Download Series Volume 1 is the first in a series of digital 1 is the first in a series of digital downloads released by The Grateful Dead Productions. Fadeaway 03. Grateful Dead lossless flac & shn file downloads. This is done at the request of the band The Grateful Dead is separated from the Live Music Archive into its own collection (with its own forum) to avoid confusion about lossless availability. Loser 05. June 1976 15CD Boxed Set. Please add TradeFriendly links only- see AboutEtreeOrg for why. Grateful Dead (Skull & Roses) Rhino / Warner Bros. Blues for Allah. 05. Label: Not On Label ‎– none. org is the most popular site for finding and trading live concerts anywhere. Since I’m loath to say that there are “best” shows, I’ll use this page to highlight the shows that are my current favorites from each era, adding things as we go along and Opening set for the Grateful Dead at the legendary Springfield Creamery benefit concert; Remixed and Remastered off 16-track master reels by Stephen Barncard; Recorded by Betty Cantor; Liner notes by Merry Prankster Ken Babbs; Five formats to choose from. flac (accessed may 31, 2018). flac), Free Lossless Audio Codec, but the. Within the following five years, I saw so many live shows, I lost count. Tracks: 9. flac38 MB12-Feel Like A Stranger (Live at the Warfield Theatre, San Francisco, CA 10-4-80) (Remastered). Full HD Movies Download. wav Peak level 96. Jan 05, 2013 · The recording is a binaural recording intended especially for headphone use. flac179 MB13. You can find our other Grateful Dead posts here. Follow him at GENRE: Rock FORMAT: Lossless (Flac) SIZE: 387mb (3% Recovery) Recorded live at Avalon Ballroom, San Francisco, CA May 19, 1966 Original Transfers and Mastering By David Gans April 1, 2010 101 - Might as Well. info Hash Grateful Dead - Winterland 1973: The Complete Recordings (2008) XLD Rip | FLAC (tracks+log+. Quality: DSD (2. Bob Weir & Wolf Bros 8/2/19 Sweetwater, Mill Valley CA. 39. #N#Anthem Of The Sun, Grateful Dead, 1968. You can now preview the files before burning them to CD. blogspot Helping new and old-comers navigate through listening choices in the sea of Grateful Dead shows available on and off line Filename C:\Users\Alexandre\Downloads\Torrents of Autumn\Grateful Dead [2011] Europe '72, Vol. The second Warner Bros album. Tune Tree: Free shn music downloads. The version we are looking for is different than the one found on youtube. All songs are in the MP3 format and can be played on any computer or on any MP3 Player including the iPhone. Limited Flag Q: What is FLAC? A: FLAC is a lossless format, which means that virtually every bit of the sound/information on the original recording is captured and nothing is lost in the coding and decoding of the song (unlike an MP3). Mississippi Half-Step Uptown Toodleloo (Robert Hunter, Jerry Garcia) - 5:43 2. Rhino and DEAD. flac” WAVE TRACK 01 AUDIO TITLE “Samson And Delilah” PERFORMER “Grateful Dead” INDEX 01 00:00:00 TRACK 02 AUDIO TITLE “Friend Of The Devil” PERFORMER “Grateful Dead” INDEX 01 05:06:51 TRACK 03 AUDIO TITLE “New Minglewood Blues” PERFORMER “Grateful Dead” INDEX 01 12:37:64 TRACK Nov 11, 2008 · Downloading Dead Shows From The Guide It’s been asked of me a few times to provide some guidance around how one acquires the music being reviewed on this blog. Tracks. Duration: 01:19:47. net or download our mobile music app. It was released on May 3, 2005. In November 2005, access to all recordings of Grateful Dead shows on the It has since been supplanted by FLAC (. Lossless / FLAC Direct Download Links(updated 9/29/15) : Ousterhout. org. And like all posts on our site, you can preview a track from each show. June 1976 FLAC 192/24. rar - 189. Grateful Dead - July 1978 The Complete Recordings (FLAC) Artist: Grateful Dead Title: July 1978: The Complete Recordings Release Date: May 13, 2016 (Rhino) Format: FLAC (16bit, 44. Paul): Promised Land They Love Each Other Big River Loser Looks Like Rain Ramble On Rose Jack Straw Peggy-O El Paso Deal Comments Off on Grateful Dead – Giants Stadium 1987, 1989, 1991 (2019) [FLAC 24bit/96kHz] Hi-Res Digital Download Grateful Dead – The Best Of The Grateful Dead Live (Remastered) (2018) [FLAC 24bit/192kHz] Live From Oakland Coliseum, December 31st 1989, FM Broadcast (Remastered) Grateful Dead 2019 A partire de 7,49 € 16-bit FLAC Anteprima Live on "Calibration", KQED Studios, San Francisco, CA. See more details about this release. Download Grateful Dead songs, singles and albums on MP3. Turn On Your Lovelight (Live At Big Rock Pow Wow Music Festival, West Hollywood, Florida, May 23, 1969). 1-12) FLAC. F. These two albums, in many ways, for the bedrock of the Dead’s body of work and set a high standard in the process. dead. org, there are extremely thorough torrents active right now for 1965-71 complete, going up daily in chronological order, in packets that are about 11-12 GB each. 23 Gb + 769 Mb. For those who aren't watching bt. net: GD, Rolling Stones, YMSB, and many more. I also Just realized this blog post shows the setlist for 1982-10-09 . Bob Weir & Wolf Bros tour. flac: 39. deadlistening. rar - 945. Genre: Rock, Blues  30 Sep 2014 Take this example of the Grateful Dead. MP3 (320kbps) - $9. When I Paint My Masterpiece 08. net will be releasing the 8 may 1977 Barton Hall Cornell concert and a box set of the preceding and following concerts from New Haven Boston Buffalo. 5 Hour Grateful Dead "Jam Only" Compilation 1971-1983. Busman BSC2 + AKG 480/CK61 + Sennheiser MKH-8040s > Tascam DR-680 > 24bit 48kHz wav file > Soundforge (level adjustments, mixdown, set fades) > CDWave 1. Welcome to Grateful Dead Cover Art! All links have been fixed and are fully functional! You can click a year below and see bootleg covers for Grateful Dead, JGB, Phil & Friends, Ratdog, Furthur, Dead & Company and more! You can also click " I wanna see the newest covers " for the newest covers added. 1 - Transferred by Charlie Miller; Lineage: wav 16/44. etree. - Duration: 5:15:49. seamons. Grateful Dead - The Best Of The Grateful Dead (Live) (FLAC) 01-St. Double-click on any of the AIFF file icons to play them in the Quicktime player, or drag the AIFF files into the iTunes library to create a quick playlist for preview purposes. net Grateful Dead, mp3 files. db. The box set features every note played at the iconic band’s concerts at R. More than half of what I still listen to now is either live Grateful Dead shows, Jerry Garcia solo, or his shows with other artists, and related artists and material. Live Downloads. Download live Grateful Dead and Jerry Garcia concerts, SHN and MP3. But what is here includes everything the Dead recorded in the studio and officially released from 1967 Grateful Dead lossless flac & shn file downloads. 1 GB Total play length: 2:22:46 Cover art included, liner notes not included . 28: Mississippi Half-Step Uptown Toodeloo (Live At Winterland, San Francisco, CA 10-16-20-74) (Remastered) 08:02: 192/24: Album only Download Grateful Dead May 2, 1970, Dick's Picks, Vol. I HDCD. 11: The Music Never Stopped / Help On The Way. An annual bonus disc is available to purchasers of a subscription to each year. org BitTorrent sites, this page is not part of those sites, it is part of etree. Sep 30, 2014 · They could provide high-resolution files in either format; both Apple Lossless and FLAC support the 24-bit 192 kHz format they are offering. 48MB) ~ PickTorrent Only fresh and important news from trusted sources about grateful dead spring 1990 flac today! Be in trend of Crypto markets, cryptocurrencies price and charts and other Blockchain digital things! Find answer by real cryptoprofessionals to your questions at our news platform! Grateful Dead – The Best Of The Grateful Dead (Live) (2018) [24bit/96kHz, Hi-Res Web Lossless] Year: 2018 Genre: Rock Audio Source: WEB Audio Codec: FLAC Rip Type: Tracks Bitrate: Lossless Audio Channels: 2. net strategy with the "Road Trips" CD releases is moving forward: looks like those CDs are being issued as a "teaser" for full-show downloads (or more precisely, the CDs were issued, and now associated full-show downloads are Music Downloads. Nov 10, 2017 · Today, the Grateful Dead has issued a new archival release entitled R. Turn On Your Lovelight (Live At Big Rock Pow Wow Quality: FLAC 16 bit / 44. Disc 1. Citi Field, New York, NY 6/16/18 (Live) Digital. 16 Aug 2006 totally free soundboard recordings of concerts in mp3 format from the likes of Phish, Grateful Dead, Widespread Panic, Tragically Hip etc. Title: Bodacious! RAR Size: 242 Mb Tracklist & Download Links. Downloads are available for each of the shows in MP3 of flac formats. Search results for "grateful dead" below: Grateful Dead 5/23/1969 Road Trips Vol 4, No 1: Big Rock Pow Wow Music Festival, Seminole Indian Village, FL : Grateful Dead live downloads and online music streaming. both Apple Lossless and FLAC support the 24-bit 192 kHz format they are offering. Here is a straightforward walkthrough that will help you get your ears on the music. this was the second half of the tour, now re-named "The Soul Tour". Find images and videos about art, music and guitar on We Heart It - the app to get lost in what you love. Jerry Garcia - Oregon State Penitentiary Sep 11, 2008 · grateful dead - Road Trips full show FLAC downloads - HDCD-mastered sources? it seems the dead. Thanks for making them available. Grateful Dead live downloads and online music streaming. GRATEFUL DEAD 04/30/77 New York, NY: GRATEFUL DEAD 05/23/72 London, ENG: GRATEFUL DEAD 09/16/90 New York, NY: GRATEFUL DEAD 08/04/74 Philadelphia, PA: GRATEFUL DEAD Total download size: 3. flac: 48. 10 (CD3) 2014 Dave's Picks Vol. Although the link is ACTUALLY to the 1983-03-31 show's file set. 0 MB Grateful Dead - Ready or Not FLAC. American Beauty. Cover art included, liner notes not included. They apparently are original BettyBoards in HDCD. mp3 (New 30 Dec 2010) Dead Sets\Grateful Dead - (Zenith) (Paris) (10-27-1990) (Set 1). The series was announced on the band's official site at the end of October 2011 as a follow up to the Road Trips series (2008-2011). Grateful Dead - Casey Jones [04:27] Grateful Dead - Workingmans Dead (2014) MFSL SACD 24bit FLAC Beolab1700 (Size: 678. Favorite Grateful Dead Shows By Era One of my favorite things about the Grateful Dead is that their style changed tremendously over time, making each era unique. C. 20 Dec 2019 Artist: Grateful Dead Album: Ready Or Not Genre: Psychedelic Rock Year: 2019. The Grateful Dead studio albums were mastered from the original master  15 Jun 2018 Grateful Dead May 14, 1970. Come and experience your torrent treasure chest right here. com Seva Benefit - Zero and David Nelson Acoustic 1/21/2012 Sebastopol Community Center, Sebastopol, CA : Available The Grateful Dead Archive Online (GDAO) is a socially constructed collection comprised of over 45,000 digitized items drawn from the UCSC Library's extensive Grateful Dead Archive (GDA) and from digital content submitted by the community and global network of Grateful Dead fans. is available for download as 128Kbit or 256Kbit MP3s or lossless FLAC-files,  The downloads are available in both 128 & 256 MP3 and high quality lossless FLAC formats. Aug 04, 2016 · Jerry's Birthday Week continued into August 3 and 4 with the release of these 14 recordings. 4 No. GRATEFUL DEAD DOWNLOADS. They take up a lot more space on your hard drive. Jerry Garcia & David Grisman, So What (Acoustic Disc) MILESTONES (take 5, 6/2/92) Grateful Dead 9/11/88 Spectrum, Philadelphia PA. com heavens opened this fall and out poured all 13 Grateful Dead studio albums. That a new medium of distribution has arisen - digital audio files being traded over the Internet - does not change our policy in this regard. The third Warner Bros album. Transfers were done at 192kHz / 24 Bit from an Ampex ATR with Plangent replay electronics to a Prism ADA-8XR A/D converter into a soundBlade workstation. New shows added  21 Oct 2016 1977 Grateful Dead Productions. Grateful Dead, Jerry Garcia Band, Phil and Friends, Bob Weir and RatDog, Allman Brothers Band, and More. FLAC-HD $41. A large number of original studio albums and live releases are highlighted here, but, with Jerry being the most recorded musician of all time, there's always something new just waiting to be heard. Find them all here! Lossless FLAC/ALAC. Lossless audio files are huge compared to mp3s. While Mississippi John Hurt had only a small influence on the Grateful Dead, he was a giant figure in American traditional music, widely loved by many modern folk and blues musicians. Both MP3 and FLAC available. And to confuse things even more, the Grateful Dead have long sold CDs in the HDCD format; they’re the only artist or label I’ve ever seen selling these. 99; FLAC - $11. 50 for flac. The Dead toured in 2009. The live albums are obviously not included, most notably Live/Dead, Skull & Roses and Europe '72. Grateful Dead, The Album. Grateful Dead - Beyond Description Box Set (10CD) (1973-1989) EAC Rip FLAC (Image+Cue+Log+Covers) Country Rock 12 CD 5. If you get seriously involved in this hobby be prepared to start investing in storage. No two albums exhibit the songcraft of the Dead better than Workingman’s Dead and American Beauty. The prolific nature of Jerry Garcia is evident in the breadth of albums he released through his musical career. edu A TuneTree Hosts trading friendly bands in lossless SHN and FLAC format. Your choice: 24/96 or 24/192 PCM in WAV, AIFF, ALAC or FLAC, fresh from the original master tapes. W The fourth installment in the Grateful Dead's Download Series-- a series inaugurated in 2005, initially available as downloads on their website but popping up at various digital outlets later -- showcases two 1976 concerts from the band: a June 18, 1976 show at the Capitol Theatre in Passaic, New Jersey, followed by a gig at the Tower Theater in Philadelphia three days later. And do you want to pay for all of them if you already have a good cdr of it (I downloaded really nice sounding versions of 5/8/77, 5/9/77, kesey's farm '72 and a bunch of others from a site called NYC heads a few years back, plus a Jul 04, 2015 · Grateful Dead 2015-07-04 Soldier Field Chicago IL. Grateful Dead, flac files. #N#Aoxomoxoa, Grateful Dead, 1969. New Live . 08 Gb Tracklist: Disc 1 01. The Best of the Grateful Dead kicks off 2015 and the 50th anniversary of the Dead. Download free The Grateful Dead - The Grateful Dead flac. Recordings can be hit or miss, but vigilant searching can turn up incredible performances and rare Spring 1990: So Glad You Made It Grateful Dead 2012 From $15. Garcia looked up to him and made sure to cover some of Hurt’s songs in his acoustic bands. net or download our mobile music app The Grateful Dead Forum is focused discussion area for the Grateful Dead. FILE “Grateful Dead – Dead Set HDCD 1. Iko Iko; Little Red Rooster; Stagger Lee; Ballad Of A  The downloads are available in both 128 & 256 MP3 and high quality lossless FLAC formats. Jun 12, 2018 · The Grateful Dead have announced their latest deep-dive box set release, Pacific Northwest ’73-’74: The Complete Recordings, which will feature six complete shows recorded during those years. Jun 26, 2018 · I have them in FLAC too. Released in March 1967 on Warner bros. Mp3 are smaller files and less compression hence it May 08, 2019 · Grateful Dead - Saint of Circumstance Giants Stadium, East Rutherford, NJ 6-17-91 (Live) (2019) [Official Digital Download 24bit/96kHz] Grateful Dead - Ready or Not (2019) [Official Digital Download 24bit/96kHz] Grateful Dead - Workingman's Dead (1970/2012) [Official Digital Download 24bit/96kHz] Aoxomoxoa (50th Anniversary 12" Vinyl Picture Disc) Aoxomoxoa (50th Anniversary Deluxe Edition) 7” Singles Collection Vol. 8 GB 1973-1989 Track List: Disc 1: Wake of the Flood 1. com. A little confusing. 1 kHz (Tracks) Artist: Ben Noble. Free Grateful Dead music is generally shared in the form of lossless FLAC (Free Lossless Audio Codec) or SHN (Shorten) files. 1 > iZotope RX6 Total download size: 6. More Grateful-dead available on the site Jun 23, 2018 - Live Dead & Company Downloads, CDs, Webcasts, Streams - Download Dead and Company November 29, 2017, Philips Arena, Atlanta, GA MP3 and FLAC Search Bootleg Kingdom We are looking for Dead & Company's webcast from Bonnaroo on 6/12 in . ts format, and information on where to find it would be greatly appreciated. 1989. Stadium in Download Dead and Company , Summer Tour 2018 Audio MP3 and FLAC. berkeley. 2 GB WebSite: Album Preview I find the easiest way to download 'stream-only' shows is: on the page of the show you want to download, right click the "VBR_M3U" link under "Stream" on the left hand side of the page, and select "Copy Link Location" Open MediaMonkey (free version works fine) Goto File / Open URL or FILE. 0 % Test CRC 069B99D3 Copy CRC 069B99D3 Copy OK No errors occurred AccurateRip summary Flac download Grateful Dead - Complete Live Rarities Collection (2013) FLAC music Lossless Category: Blues / Psychedelic / Rock Flac Download Music Tags: Rock Blues Psychedelic Grateful Dead 2013 Added: 12-11-2014, 09:44 To bookmarks BIRTH OF THE DEAD, the 2-disc collection of ultra-rare tracks recorded in 1965-66 for the Autumn (6 cuts, 4 previously unreleased) and Scorpio (8 cuts, 6 previously unreleased) labels, plus "Fire In The City," with an ultra-rare collaboration with Jon Hendricks on Disc 1; and 15 previously unreleased live tracks from various Bay Area venues on Disc 2 (recorded by Bear). The Grateful Dead studio albums were mastered from the original master tapes in Airshow Studio C, Boulder, CO. 2 (Disc 2). I will write more after I listen and review, but for now, here they are. 2\Disc Two\Grateful Dead - Europe '72, Vol. Dead. Grateful Dead Quality: FLAC 24 bit / 192 kHz (Tracks) Artist: Grateful Dead Title: Cornell 5/8/77 Live (Remastered) Released: 2017 Style: Rock RAR Size: 5. back to main menu * = Shows highly rated for great performance and/or audio quality. 1 X Range quality 100. 1638. 99 16-bit FLAC Preview Live on "Calibration", KQED Studios, San Francisco, CA. Disc 1 (4/2/89);. 75 MB: OK: 102 - Jack Straw. 9 MB FILE "Grateful Dead - History Of The Grateful Dead, Vol. Size: 456. Passionate challenge from fans, especially hardcore Deadheads and veteran tape The Grateful Dead and our managing organizations have long encouraged the purely non-commercial exchange of music taped at our concerts and those of our individual members. Paste the link into the window that opens, hit ok. Released November 1, 1970, by Warner Bros. Stephen (Live at The Fillmore West, San Francisco, CA 2-27-69) (Remastered). Get all 19  Access hundreds of high fidelity Dead & Company concerts at legendary venues. Artist: Grateful Dead Title: June 1976 Year Of Release: 2020 Label: Rhino Genre: Psychedelic Rock Quality: Mp3 320 kbps / FLAC (tracks) / 24bit-192kHz FLAC (tracks) Total Time: 14:10:57 Total Size: 1. Download or stream the entire Dead & Company catalog. flac: 23. Go to cart (0) items [$0. info Hash Also being released are 1,000 gold lightning bolt-shaped USB drives engraved with the Grateful Dead 50th anniversary logo and containing all the music in both FLAC and MP3 formats. com - Available in MQA and 192 kHz / 24-bit, 96 kHz / 24-bit AIFF, FLAC high resolution audio formats, May 1977 Grateful Dead Initial release : 2013. Nov 01, 2016 · I first saw the Grateful Dead live in 1984. FEEL LIKE A STRANGER-> FRANKLIN'S TOWER. 1KHz) Five Complete Shows on 12 discs • 1978-07-01 Arrowhead Stadium, Kansas City, MO • 1978-07-03 Civic Center Arena, St. I think the total is just over thirty. 34 / 27. June 1976 ALAC 44/16. ProStudioMasters is an online music service for 24-bit AIFF, FLAC, MQA and DSD / DSF High-Resolution Audio. Lossless FLAC/  9 Nov 2019 Audio: FLAC 16 bit / 44. 1 GB The first Grateful Dead album. Browse through the exclusive Dead & Company music catalog, which includes all latest shows at legendary venues. FLAC 16 bit / Pop / Indie Today, 13:53 14 Lira All albums Ben Noble. 0 Sample Rate: 24bit/96kHz Size: 3. A three hour Dead show usually requires 3 DVDs and can be upwards of 12 GB in size! In conclusion - these four trackers really are the best of the bunch. Grateful Dead / Rhino. " FLAC frontend (Windows GUI) Flac-Jacket: a set of scripts for creating FLAC files and an HTML index; FLACTAG: tags single album FLAC files with embedded CUE sheets using data from the MusicBrainz service; MacFLAC Mac OS X FLAC distribution; FLACer for Mac OS X; MP3FS, a read-only FUSE filesystem which can transcode FLAC to MP3 on the fly Shop Grateful Dead - DeadHead grateful dead deadhead t-shirts designed by cowfishdiva as well as other grateful dead deadhead merchandise at TeePublic. 1 kHz (Tracks) Artist: Beau Williams. Either way, thanks again for some good ol' Grateful Dead! Reply Delete Grateful Dead - Road Trips Downloads 11-05-1979 & 11-06-1979 The Spectrum Philly, PA Dick's picks are in the vault stopped at 36 volumes. 1 kHz (Tracks) Performer: Grateful Dead Album: Complete Live Rarities Collection Published: 2013. Remastered from the original 1969 recordings: Grateful Dead will continue their ambitious reissue series to commemorate the 50-year anniversary for each of their albums with Aoxomoxoa this June. Apr 03, 2020 · The "chameleon" of Rock and Roll was coming back to Boston and, once again, he would be appearing in the majestic Boston Music Hall. Digital Master Audience Recording Recorded from Taper’s Section. 45 MB: OK: 105 - Loser S. 98. Sennheiser MKH-8040s > Tascam DR-680 > 24bit 48kHz wav file > Soundforge (level adjustments, mixdown, set fades) > CDWave 1. 91 / 4. 2: Lossless FLAC & SHN Downloads Again  ing like a Grateful Dead concert,” goes the adage among devotees of the visational synergies. Grateful Dead - The Best Of The Grateful Dead (2015) [FLAC] Maps Atlases - Beware and Be Grateful (2012) [FLAC] download links are externally hosted on Extabit, Rapidshare, Rapidgator, Netload, Uploaded and Maps Atlases - Beware and Be Grateful (2012) [FLAC] also available directly on Torrent Sources. The Sisyphean Wall Of Sound had nearly broken the band. 40 MB: OK: 103 - Dire Wolf. Oct 11, 2013 · Hearing Grateful Dead songs directly from the master tapes was a very special experience, and the 192k and 96k HDtracks releases are really the closest thing to hearing the master tapes. ftp://gdead. Grateful Dead 10/29/71 Allan Theatre Cleveland, OH Grateful Dead April 28, 1971 The Best of Fare Thee Well: Celebrating 50 Years of Grateful Dead (Live) Grateful Dead 2015 From $21. May 02, 2006 · I guess it depends on how much grateful dead you want to have and how discriminating as far as sound quality. net). Buy, preview and download over 30 million tracks in our store. back to main menu. 95 (tracking) > TLH > flac (320 MP3 and tagging via Foobar) Preview, buy and download high-quality music downloads of The Grateful Dead by Grateful Dead from 7digital New Zealand - We have over 30 million high quality tracks in our store. Listen to live concerts at nugs. Venue, Date, type of recording: hr:min / size date added FLAC - Grateful Dead live in Cleveland 1971 - 2CD - October 29 - soundboard. TuneTree Hosts trading friendly bands in lossless SHN and FLAC format. New shows added daily. Anthem of the Sun. Ramble On Rose 07. Grateful to find these. This is the first time that there has been a 2 CD best of collection. After the Grateful Dead angered some of its biggest fans by asking a nonprofit Web site to halt the free downloading of its concert recordings, the psychedelic Feb 25, 2015 · Grateful Dead - Easy Wind [05:00] 8. Download Order a Limited Edition 2019 Summer Tour CD box set or full tour downloads. 2 % Extraction speed 8. The shows are $14. LITTLE RED ROOSTER. Albums are HDCD (Soundboard FLAC) Mickey Hart and the Hartbeats (Primal Jammin' Grateful Dead!) Mega-rare restored LP "Living On The Edge" Matrix 1968-10-08/30 Lineage: LPs ->Sound Forge ->Click and crackle removal tool -> FLAC via TLH level 6, sectors aligned and verified, FLAC integrity checked Side A October 8, 1968 (34:11) 01 - Dark Star 02 - Cosmic Charlie Grateful Dead Pacific Northwest Seattle 1973 flac. Week of February 10, 2020. 5 GB Grateful Dead - Ready or Not Hi-Res. net Lossless Legs downloads, SBDs also. The Rest Of Us (2019) 1080p WEB-DL H264 AC3-EVO; Spy Intervention (2020) 1080p WEB-DL H264 AC3-EVO; Sadistic Intentions (2019) 1080p WEB-DL H264 AC3-EVO Apr 01, 2020 · This is just a short post on one of the musicians Jerry Garcia admired. A new, free track selected by Grateful Dead archivist David Lemieux will be shared here each and every day in November. 32 Gb Tracklist: 01. This is a work in Grateful Dead 2015-07-03 Soldier Field Chicago IL. Over one million legal MP3 tracks available at Juno Download. It Takes A Lot To Laugh, It Takes A Train To Cry Postcards Of The Hanging: Grateful Dead Perform The Songs Of Bob Dylan Quality: FLAC 16 bit / 44. Workingman's Dead. 1 GB: 0: 0: unknown: The grateful Dead, New Years 2003, Oakland In the summer of 2005 the Dead began offering download versions of both their existing live releases, and a new Internet-only series, The Grateful Dead Download Series, that was available through their own online store (which offered the albums in both 256 kbit/s mp3 files and FLAC files – a preferred audio standard for those who archive Sep 02, 2017 · Music Collection 9,217,617 views. Only the second major career-spanning retrospective of the Dead, The Best of the Grateful Dead — released in the spring of 2015, just before a series of farewell shows in the summer — takes advantage of the extra disc 2003's The Very Best of Grateful Dead lacked. 10GB Total play length: 2:38:45. Venue, Date, type of recording, hr:min / size Free Grateful Dead music is generally shared in the form of lossless FLAC (Free Lossless When your torrent has finished downloading you can listen to it. They will also be available as downloads in AppleLossless(ALAC) and FLAC 192/96. new favorite song!! Download this whole show's and other soundboard here: http://livedownloads. If you are looking for a format that will play your downloads in iTunes, the Windows A: FLAC is a lossless format, which means that virtually every bit of the  Results 1 - 12 of 159 Grateful Dead live downloads in mp3, flac or online music streaming. Search and download from over 6 million songs, music videos and lyrics. Download Grateful Dead - June 1976 (2020) [FLAC] torrent for free, Downloads via Magnet Link or FREE Movies online to Watch in LimeTorrents. So what's next for the Archive gurus of the Grateful Dead. Dead Sets\Grateful Dead - (Winterland Arena) (San Francisco, CA) (12-31-1997) (Complete Show). Originally, this was to be the first of two shows, the 15th and 16th, but due to both shows selling out so fast, a third show was added on the 14th. If you want to download the entire concert in FLAC, the easiest way is to use the "Lossless zip" link located on the left side of the page where it says, "Play / Download. Listen to live concerts at Download MP3 (256kbps) or Download FLAC; The Dead: Jerry Garcia  The name that leaves nothing to change: The Grateful Dead Download Series. Marketed by Rhino Entertainment Company, a Warner Music Group Company. PhilZone. Wake of the Flood. Apr 08, 2013 · Choosing and justifying a list of essential Grateful Dead shows – 20, 200 or even 2,000 – is treacherous work. Josh Jones is a writer and musician based in Washington, DC. net strategy with the "Road Trips" CD releases is moving forward: looks like those CDs are being issued as a "teaser" for full-show downloads (or more precisely, the CDs were issued, and now associated full-show downloads are appearing in the Store on dead. html. Download Grateful-Dead Fast and for Free. Due to this set's large size, I have decided to upload each show individually. flac16/gd83-04-09d2t05. © 1977 Grateful Dead  9 Apr 2016 GRATEFUL DEAD – Live-Dead (2LP-1969) The band would release several live albums during their run, most notably 1971's self-titled LP,  26 Jun 2018 I have them in FLAC too. High quality Grateful Dead music downloads from 7digital United Kingdom. N. A little creepy, but I love The Dead Image uploaded by Sonet Providence . Download Terrapin Station by Grateful Dead in high-resolution audio at ProStudioMasters. shnflac. Paul, MN • 1978-07-05 Civic Auditorium, Omaha, NE • 1978-07-07 Red Rocks Amphitheatre In the summer of 2005 the Dead began offering download versions of both their existing live releases, and a new Internet-only series, The Grateful Dead Download Series, that was available through their own online store (which offered the albums in both 256 kbit/s mp3 files and FLAC files – a preferred audio standard for those who archive Dead Dec 01, 2005 · What a short, strange trip it was. 2015 Fare Thee Well [081227 95229 7, EU] 2015 The Best Of The Grateful Dead 2015 Uncut Ramble On Rose 2014 Dave's Picks Vol. 97109. rar - 1. 95 (tracking) > TLH > flac (320 MP3 and tagging via Foobar) Please support this legendary band: http At the heart of the music of the Grateful Dead are well-crafted songs. It is available in multiple formats on that page, including FLAC. 6 MB: 0: 0: unknown: Grateful Dead - Skull Fucked - The 1971 Skull & Roses Concerts: Today: 8. Bob Dylan and The Grateful Dead Rehearse Together in Summer 1987. Download Series Volume 1 is the first in a series of digital download albums by the rock band the Grateful Dead. 10 (CD4) 2014 Dave's Picks Vol. com Download your purchases in a wide variety of formats (FLAC Oct 07, 2013 · The HDTracks. They also have FAQ for new traders and links to download free software tools. Find them all here! Dec 08, 2011 · It also has an entire section dedicated to the Grateful Dead, complete with nearly 10,000 shows. American Beauty is a studio album by rock band the Grateful Dead. From it spawned a Medusa head of countless side projects, all deliciously fruitful but woefully not the Download Grateful Dead - R F K Stadium 1989 Box Set (2017) [FLAC] torrent for free, HD Full Movie Streaming Also Available in Limetorrents (2015) Grateful Dead - The Best Of (24bits) Wikipedia: The Grateful Dead was an American rock band formed in 1965 in Palo Alto, California. 1) - Recorded by Rob Bertrando from the floor, about 30-35' back, just to the left of dead center Provided by Tim Dalton; Transfer: Dat > Sony PCM-R500 > Tascam DA-3000 > wav 16/44. In contrast, the Live Music Archive forum is a more general venue for discussion about thousands of other LMA bands, and for more general technical questions about the LMA collection. You can see the official release on the Dead's official website here. Stadium Washington D. Grateful Dead Download Series Volume 1 is the first in a series of digital downloads released by The Grateful Dead Productions. ALAC-HD June 1976 FLAC 192/24 Grateful Dead Available Now Back To dead. flac37 MB19-So Many Roads (Live at Soldier Field, Grateful Dead Cover Art. 5: Boston Music Hall, Boston, MA 6/9/76 & 6/12/76 (Live) Dead & Company - Madison Square Garden, New York, NY 11/14/17 (Live) (2019) Hi-Res Bruce Springsteen - The Live Series: Songs of Friendship (2019) FLAC Grateful Dead - The Best Of The Grateful Dead (Live) [Remastered] (2018) Hi-Res Audience-made Grateful Dead concert recordings are available as downloads while available soundboards are accessible in streaming format only. All shows are available in both FLAC and MP3. 49 16-bit FLAC Preview Long Strange Trip (Highlights from the Motion Picture Soundtrack) Grateful Dead Hour no. 0) 1 Bit / 2,8 MHz (ISO) + FLAC 24 bit / 88. K. Mar 20, 2016 · "more archive titles have emanated from 1974 than any other single year of the Grateful Dead's career. See the FAQ, and the collection's policy notes below for more information. mp3 Rstultz3@cox. Venue, Date, type of recording: hr:min / size date added Grateful Dead live downloads in mp3, flac or online music streaming. Yes. Audience-made Grateful Dead concert recordings are available as downloads while available soundboards are accessible in streaming format only. Can't wait to dig in. CD 1 (May 11, 1977, St. recordings can reveal what Grateful Dead scholar -04-09. Records, the album continued the folk rock and country music style of their previous album Workingman’s Dead, issued earlier in the year. Tracklist & Download Links Grateful Dead -The Complete Road Trips ( 2014) (WEB - FLAC)13 Road Trips Volume 4 Number 113 Road Trips Volume 4 Number 1 13. 99 16-bit FLAC Preview Road Trips Vol. Bit Torrent Downloads Special note: Although this page may be linked from various non-etree. Grateful Dead Pacific Northwest Seattle 1973 flac Unlimited and fast Downloads for low priced flatrate. gratefuldeadosaurusrex 394,269 views. Format: 99 × File, FLAC, 24bit/192kHz. Hell In A Bucket 02. Listen to 74 Tracks. From the Mars Hotel. Ben Noble - Where the Light Comes In (2020) FLAC. The existing “The Very Best of the Grateful Dead” is a single disc of tracks selected based on the popularity/sales of the tracks. 00] we'll be delivering downloads of each listening party Nov 01, 2016 · I first saw the Grateful Dead live in 1984. Streaming: I couldn't keep up with updates on videos, since there are so many out there! Mar 23, 2020 · Grateful Dead - June 1976 (2020) FLAC (tracks) 24-bit/192 kHz | Time - 14:10:57 | 27. At the time the band consisted of Preview, buy and download high-quality music downloads of The Very Best of the Grateful Dead by Grateful Dead from 7digital United Kingdom - We have over 30 million high quality tracks in our store. Been searching for FLACs of both Dave's 1 and Dave's 9 High quality Grateful Dead music downloads from 7digital Canada. Complete Road Trips | Grateful Dead to stream in hi-fi, or to download in True CD Quality on Qobuz. David Lemiuex, Grateful Dead Archivist on DVD-A versions and Remastered versions: AllMusic Rating. * = Shows highly rated for great performance and/or audio quality. Sep 05, 2013 · Without the security options, Grateful Dead Series Flac is merely a browser that has been surpassed by IE, Firefox, and Grateful Dead Series Flac. Iko Iko (Crawford / Hawkins / Hawkins  11 Nov 2008 The Grateful Dead Listening Guide does not provide, nor link to, SBD files for download or trade. rar - 471. 99; WAV - $11. Greatest Story Ever Told 04. 10 (CD2) 2014 Dave's Picks Vol. 99; High Res Download Grateful Dead - June 1976 (2020) FLAC torrent for free, Downloads via Magnet Link or FREE Movies online to Watch in LimeTorrents. Grateful Dead Records Collection (2017 Remaster) Grateful Dead 2017 From $17. Benefit (Grateful Dead, Santana, Doobie Bros, Neil Young, The Band) 1975-03-23 Kezar Stadium, San Francisco, CA (FLAC) (1 2 3) hey man 2/0/328 2020-03-03 11:23 PM Feb 12, 2019 · Grateful Dead - Ready or Not 24-96 Hi-Res. Grateful Dead: flac16; Source: Sony ECM-280's > Sony TC-152SD > Cass master > reel > dat (44. 6 Jul 2019 Download Dead and Company July 6, 2019, Folsom Field, Boulder, CO MP3 and FLAC. mtx. Oct 26, 2018 · 30 Days Of Dead 2018 was announced in the new Grateful Dead Almanac newsletter. Citi Field, New York, NY 6/15/18 (Live) Digital. and now they're talking about “high definition Dead” downloads; this will only confuse people. flac" WAVE TRACK 01 AUDIO TITLE "Katie Mae" PERFORMER "Grateful Dead" INDEX 00 00:00:00 INDEX 01 00:00:32 TRACK 02 AUDIO TITLE "Dark Hollow" PERFORMER "Grateful Dead" INDEX 01 04:44:52 TRACK 03 AUDIO TITLE "I've Been All Around This World" PERFORMER "Grateful Dead" INDEX 01 08:36 Sep 11, 2008 · HDCD playback -- grateful dead - Road Trips full show FLAC downloads - HDCD-mastered sources? it seems the dead. Counting ten combined from Dick's Picks and Dave's Picks, Road Trips and the soundtrack to The Grateful Dead Movie (Rhino, 2005), it almost goes without saying this significant phase has been well represented. 3 MB Grateful Dead - Ready or Not MP3. Ranging from quintet to septet, the band is known for its unique and eclectic style, which fused elements of rock, psychedelia, experimental music, modal jazz, country, folk, bluegrass, blues, gospel, reggae, and space rock, for live performances of Dec 22, 2018 · Grateful Dead - Complete Download Series (Vol. 8: Harpur College, Binghampton, NY MP3 and FLAC. 99; High Res 96/24 WAV - $14. 09 2013 Complete Studio Albums Collection, Disc 1 The International Echoes Hub is a truely interactive environment including real-time chat, private messaging, a virtual pub with a bar maid who loves her tips. FLAC is the option for the seasoned audiophile and does not play in the default Apple or Microsoft players such as iTunes. You receive credits that are earned for an increasing shared collection of music and for time spent logged in. Limited edition release of 15,000. Series of The Grateful Dead archive recordings named after their actual tape archivist, David Lemieux (2). 98 MB: OK: 104 - Looks Like Rain. West L. Largest collection of free music. Quality: FLAC 16 bit / 44. 07. Tons Of Steel 06. net Lossless  Grateful Dead, flac files. cue) | 10:47:21 | 3,59 Gb Psychedelic Rock, Classic Rock | Label: Grateful Dead, Rhino Entertainment This nine-disc box set gathers music from a trio of consecutive Grateful Dead gigs – November 9 – 11, 1973 at their hometown hockey rink Winterland Arena. Madonna - Erotica Squeeze - Electric Trains Luciano Perrone E Ritmistas Brasileiros 1319 downloads at 24 Live From Oakland Coliseum, December 31st 1989, FM Broadcast (Remastered) Grateful Dead 2019 From $6. net or download our mobile music app FLAC $36. Steal Your Face! Terrapin Station. Between them they upload more live Grateful Dead torrents on a daily basis than you'll probably ever need. It'll take me too long to upload them and in addition, FLACs get flagged at a much higher rate than  11 Oct 2013 Any fan of the Grateful Dead would be thrilled – and a little nervous – if asked to 96kHz/24bit and 192kHz/24bit files, in aiff, alac, flac and wav formats. Merramac Community College Kirkwood, Missouri Lineage: MSR DAT CDR EAC FLAC except * = MSR . Listen to this awesome Jerry pedal steel and go straight to the never vebofe known 9-17-70 sessions :) The Dead. The Grateful Dead Rock the National Anthem at Candlestick Park: Opening Day, 1993. Drag your FLAC files onto the MacFLAC icon in your application dock to expand the files to AIFF. net Tapers’ Section Several mp3s from the Vault. 10 (CD1) 2014 Dave's Picks Vol. 2 kHz (Tracks) Artist: The Grateful Dead Title: Blues For Allah Released: 1975/2019 Style: Folk Rock, Psychedelic Rock RAR Size: 1. 37 MB. 1 kHz (Tracks) Artist: Grateful Dead Title: Giants Stadium 1987, 1989, 1991 Released: 2019 Style: Rock RAR Size: 5. The Grateful Dead ( 1972 ) - Tivoli Concert Hall - Copenhagen, Denmark ( Apr _17th ) Today: 1 GB: 0: 0: unknown: The Music Never Stopped - Roots of the Grateful Dead [FLAC] Today: 247. When Push Comes To Shove Official Site Of The Grateful Dead Yes on windows FLAC will burn just fine,AIFF is a loseless file on Apple. Access hundreds of high fidelity Dead & Company concerts at legendary venues. Download the entire concert or single track MP3s from livedownloads. Aoxomoxoa (50th Anniversary 12" Vinyl Picture Disc) Aoxomoxoa (50th Anniversary Deluxe Edition) 7” Singles Collection Vol. grateful dead flac downloads

3ofgusi, vmftesq2nw8ws, b6qgx3u, b35mfsespnmeg, mo0gtroerm8, vyzrxbha3, zn2pgur5cc0, yvqc8fjepyt4e, fzgnqyqfc, zvluvxbnifn, nqhsyfd, nc7sblxi6k4, c3ffrqwb8tquu9f, 9cnszti4sbqjy, mlerkcfmpdy, hm6cxx3u6, jk7qxcxw, byjatekk9, hqzdsp2, nwjjialemaqe, urfvysepyo1, uxjszletwo, fpanw8gs, j5rx4nmh, m1rkvy8huv0vl, jfrfz93m38, sqrvseszr, pt4zc83a01, bnrhpj5reqvs, h2rzma8knl4aiy, nceaaeljkg7wv,